#TITLE:burnout;
#SUBTITLE:;
#ARTIST:supergreenx;
#TITLETRANSLIT:;
#SUBTITLETRANSLIT:;
#ARTISTTRANSLIT:;
#CREDIT:;
#BANNER:SAMIRTHEQUEERLOLOLZ.png;
#BACKGROUND:burn-bg.png;
#LYRICSPATH:;
#CDTITLE:ridge's originals.bmp;
#MUSIC:Burnout.mp3;
#OFFSET:-6.392;
#SAMPLESTART:18.100;
#SAMPLELENGTH:12.000;
#SELECTABLE:YES;
#BPMS:0.000=149.990;
#STOPS:;
#BGCHANGES:;
// cache tags:
#FIRSTBEAT:0.000;
#LASTBEAT:224.000;
#SONGFILENAME:Songs/Music V.I.P ^_^/Burnout/Burnout.sm;
#HASMUSIC:1;
#HASBANNER:0;
#MUSICLENGTH:148.218;
// end cache tags

//---------------dance-single - looks like a mookie----------------
#NOTES:
     dance-single:
     looks like a mookie:
     Hard:
     10:
     0.650,0.642,0.553,0.000,0.665,592.000,82.000,0.000,0.000,0.000:
1000
0100
0010
0001
0010
0000
1000
0000
,
1000
0100
1000
0010
0001
0000
1000
0000
,
0100
0010
0100
0001
0100
0000
1000
0100
,
0010
0001
0010
1000
0010
0100
0010
0000
,
0001
0100
0010
1000
0100
0010
1000
0000
,
0001
0010
0100
0010
1000
0100
1000
0000
,
1000
0000
1000
0000
1000
0000
1000
0000
1000
0000
0000
1000
0000
0000
0100
0000
,
0010
0000
0000
0100
0000
0000
1000
0000
0010
0010
0010
0010
0010
0010
0010
0010
,
1000
0000
0100
0001
0100
0010
1000
0100
0010
0001
0100
0010
1000
0010
0100
0010
,
1000
0100
0010
0001
1000
0100
0010
0001
0100
1000
0010
1000
0100
0010
0001
0100
,
0010
1000
0010
1000
0001
0010
1000
0100
0010
0100
0001
0100
0010
1000
0100
0010
,
0100
0010
1000
0100
0010
1000
0010
0100
1000
0001
0010
0100
1000
0001
0010
0100
,
1000
0001
0100
0010
1000
0010
0100
0001
1000
0100
0010
0001
0100
0010
1000
0001
,
1000
0010
0100
0010
1000
0100
0010
0001
0100
0010
1000
0010
0100
1000
0001
1000
,
0010
1000
0010
0001
0100
0010
1000
0100
0010
0001
0100
0010
1000
0100
0010
1000
,
0010
0100
1000
0010
1000
0010
1000
0001
0100
0001
0100
0010
1000
0001
0100
0001
,
1000
0010
0100
0001
1000
0010
0100
0001
1000
0100
0001
0100
1000
0001
0100
0001
,
1000
0010
0001
0010
1000
0010
0001
0010
1000
0100
0010
0001
0100
0010
0100
0010
,
1000
0100
0010
0001
1000
0100
0001
0010
1000
0010
0100
0010
1000
0001
0100
0010
,
0100
0001
1000
0100
0010
0001
0100
0010
0100
0010
1000
0010
0100
0001
0010
1000
,
0010
1000
0010
1000
0001
0010
0100
0010
1000
0010
0100
0001
0010
0100
1000
0010
,
0100
0001
0100
0010
1000
0100
0001
0100
1000
0010
0100
0001
0100
0010
1000
0100
,
0001
0010
1000
0100
0010
0001
0100
0010
1000
0100
0010
1000
0010
0100
1000
0100
,
0010
1000
0100
0001
0010
0100
1000
0010
0100
0010
0100
0001
0100
0010
1000
0010
,
0001
0010
0100
1000
0010
0100
0001
0010
0100
1000
0010
0100
0001
0100
0010
1000
,
0001
0010
0100
1000
0001
1000
0100
0010
0001
1000
0001
0010
0100
1000
0010
0100
,
0001
0010
0100
1000
0001
0010
1000
0100
0010
0100
0001
0100
0010
1000
0100
0010
,
1000
0100
0010
0001
1000
0100
0010
0001
1000
0010
0100
1000
0001
1000
0100
0010
,
0001
0010
0100
0001
0100
0010
1000
0010
1000
0001
0010
0100
0001
0010
1000
0100
,
0010
0100
0001
0100
0010
1000
0100
0010
0001
0100
0010
1000
0001
1000
0001
0100
,
0001
0010
0100
1000
0001
0010
0100
1000
0100
0010
0100
1000
0001
0010
0100
1000
,
0001
1000
0100
0010
0001
0100
0010
1000
0010
0100
0001
0010
0100
0001
0100
0010
,
1001
1010
0101
0110
,
1010
0000
0101
0000
1100
0100
0110
0000
,
0011
1010
0101
1100
,
1010
0010
0011
0000
1010
0000
0110
0010
,
0011
0000
1010
0000
0110
0000
0011
0010
,
1010
0000
0110
0000
0011
0000
0110
0010
,
1010
0000
0101
0000
1010
0000
0110
1000
,
0100
0001
0100
1000
0100
0001
1000
0100
,
1100
0011
1100
0011
0000
1100
0010
0100
,
0011
0110
1100
0110
0000
1100
0010
0100
,
0011
0110
1100
0110
0000
0011
1100
0011
,
1100
0011
1100
0011
0000
0001
0010
0100
,
0011
0011
0011
0011
0000
1000
0100
0010
,
1100
1100
1100
1100
0000
1000
0100
0010
,
1100
1100
1100
1100
0000
1000
0100
0010
,
0011
0011
0011
0011
0000
1000
0000
0000
,
1000
0100
0010
0001
0000
0010
0100
0001
,
1000
0010
0100
0001
0000
1000
0100
0010
,
0100
0010
0001
0100
0000
1000
0100
0010
,
0100
0010
0001
0010
0000
1000
0100
0010
,
1100
1100
1100
1100
0000
0001
0100
1000
,
0110
0110
0110
0110
0000
1000
0100
0010
,
1100
1100
1100
1100
0000
1000
0100
0010
,
1100
1100
1100
1100
0000
0001
0000
0000
,
0110
0000
0000
0000
;

//---------------dance-single - ----------------
#NOTES:
     dance-single:
     :
     Challenge:
     1:
     1.000,1.000,1.000,0.567,1.000,974.000,271.000,84.000,0.000,86.000:
2000
0000
0000
0000
,
3200
0000
0000
0000
,
0320
0000
0000
0000
,
0032
0000
0000
0000
,
2003
0002
0000
0000
0000
0000
0000
0000
0000
0000
0000
0000
0000
0000
0000
0000
0000
0000
0000
0000
0000
0000
0000
0000
0000
0000
0000
0000
0000
0000
0000
0000
0000
0000
0000
0000
0000
0000
0000
0000
0000
0000
0000
0000
0000
0000
0000
0000
0000
0000
0000
0000
0000
0000
0000
0000
0000
0000
0000
0000
0000
0000
0000
0000
,
0000
3003
0220
0000
0000
0000
0000
0000
0000
0000
0000
0000
0000
0000
0000
0000
0000
0000
0000
0000
0000
0000
0000
0000
0000
0000
0000
0000
0000
0000
0000
0000
0000
0000
0000
0000
0000
0000
0000
0000
0000
0000
0000
0000
0000
0000
0000
0000
0000
0000
0000
0000
0000
0000
0000
0000
0000
0000
0000
0000
0000
0000
0000
0000
,
2332
0220
0000
0000
0000
0000
0000
0000
0000
0000
0000
0000
0000
0000
0000
0000
0000
0000
0000
0000
0000
0000
0000
0000
0000
0000
0000
0000
0000
0000
0000
0000
0000
0000
0000
0000
0000
0000
0000
0000
0000
0000
0000
0000
0000
0000
0000
0000
0000
0000
0000
0000
0000
0000
0000
0000
0000
0000
0000
0000
0000
0000
0000
0000
,
3333
1000
0100
1000
0100
0010
0001
0010
0001
0100
0001
0100
0010
1000
0010
1000
2222
0000
0000
0000
0000
0000
0000
0000
0000
0000
0000
0000
0000
0000
0000
0000
0000
0000
0000
0000
0000
0000
0000
3333
2200
0000
0000
0000
3322
0030
0223
0330
0000
2002
0000
3003
0000
0100
0010
0002
1003
0100
0010
0001
1000
0100
0010
0001
,
1000
0000
1000
1000
1000
0000
1000
1000
1000
0000
1000
1000
1000
1000
1000
1000
,
1000
0001
0001
0001
0000
0001
0001
0001
0000
0001
0001
0001
0001
0001
0001
0001
,
0001
0000
0010
0010
0010
0000
0010
0010
0010
0000
0010
0010
0010
0010
0010
0010
,
0010
0000
0100
0100
0100
0000
0100
0100
0100
0000
0100
0100
0100
0100
0100
0100
,
0100
0000
1001
1001
1001
0000
1001
1001
1001
0000
1001
1001
1001
1001
1001
1001
,
1001
0000
0110
0110
0110
0000
0110
0110
0110
0000
0110
0110
0110
0110
0110
0110
,
0110
0000
1110
1110
1110
0000
0111
0111
0111
0000
1111
1111
1111
1111
1111
1111
,
1111
0000
1111
1111
1111
0000
1111
1111
1111
0000
1111
1111
1111
1111
1111
1111
,
1111
0000
1100
0110
0011
0000
0011
0110
1100
0000
0110
1001
0110
1001
1010
0101
,
1001
0000
0110
1001
0110
0000
1001
0110
1001
0000
0110
1100
0011
1100
0011
1010
,
1111
0000
1111
1111
1111
0000
0110
1001
1100
0000
0110
0011
0110
1100
0110
0011
,
1001
0000
1000
1100
1110
0000
1000
1100
1110
0000
1000
1100
1110
0110
0010
0111
,
1111
0000
1100
0011
0110
0000
1100
0011
0110
0000
1100
0011
0110
1100
0011
0110
,
1001
0000
0110
0110
0110
0000
1001
1001
1001
0000
0110
1001
0110
1001
0110
1001
,
1111
0000
0110
1001
0110
0000
1001
0110
1001
0000
0110
1001
0110
1001
0110
1001
,
1111
0000
1001
0110
1001
0000
0110
1001
0110
0000
1001
0110
1001
0110
1001
0110
,
1111
0000
0000
0000
1000
0100
0010
0001
1000
0000
0000
0000
0001
0010
0100
1000
0001
0000
0000
0000
1000
0100
0010
0001
1000
0100
0010
0001
1000
0100
0010
0001
,
1000
0000
0000
0000
0100
0010
0001
1000
0110
0000
0000
0000
1000
0100
0010
0001
0110
0000
0000
0000
1000
0110
0001
0110
1000
0110
0001
0110
1000
0110
0001
0110
,
1111
0000
0000
0000
1000
0100
0010
0001
1000
0000
0000
0000
0001
0010
0100
1000
0001
0000
0000
0000
1000
0100
0010
0001
1000
0100
0010
0001
0010
0100
1000
0001
,
0010
0000
0000
0000
0100
0010
0001
1000
0100
0000
0000
0000
0010
0001
1000
0100
0010
0000
0000
0000
1000
0001
0010
0100
1000
0001
0100
0010
1000
0001
1000
0100
,
1111
0000
0000
0000
0000
0000
0000
1000
0100
0010
0001
0010
0100
1000
0001
1000
0100
0000
0000
0000
0000
0000
0000
0000
1000
0100
0010
0001
1000
0100
0010
0001
1000
0000
0000
0000
0000
0000
0000
0000
1000
0100
0010
0001
1000
0100
0010
0001
1000
0100
0010
0001
1000
0100
0010
0001
1000
0100
0010
0001
1000
0100
0020
0031
,
1000
0000
1000
1000
1000
0000
0001
0001
0001
0000
0110
0110
0110
0110
0110
0110
,
0110
0000
1001
1001
1001
1001
1001
1001
1001
1001
1001
1001
1001
1001
1001
1001
,
1001
0000
1111
1111
1111
0000
1111
0101
1111
1110
1111
1111
1111
1111
1111
1111
,
1111
1111
1111
1111
1111
1111
1111
1111
0111
1000
0111
1100
1111
1100
1111
1100
,
0111
0011
1111
0011
1111
0011
1111
1111
1111
1111
1111
1111
1111
1111
1111
1111
,
1111
1111
0110
1001
0110
1001
0110
1001
0110
1001
0110
1001
0110
1001
0110
1001
,
0110
1001
1001
0110
1001
0110
1001
0120
1031
0110
1001
0110
1001
0110
1001
0110
,
1001
0000
1000
0100
0010
0001
1000
0200
0320
0032
2003
3200
0320
0032
1003
0100
0020
0032
1003
0100
0010
0002
1003
0100
0010
0002
1003
0100
0020
0032
1003
0200
,
0310
0001
0010
0100
1000
0001
0020
0130
2000
3002
0023
0230
2300
3002
0023
0230
1300
0001
0020
0130
2000
3001
0010
0200
2300
3001
0010
0100
2000
3002
0023
0130
,
2222
0000
0000
0000
,
0000
0000
0000
0000
,
0000
0000
0000
0000
,
0000
0000
0000
0000
,
0000
0000
0000
0000
,
0000
0000
0000
0000
,
0000
0000
0000
0000
,
0000
0000
0000
0000
,
3333
0000
0000
0000
0000
0000
0000
0000
0000
0000
0000
0000
0000
0000
0000
0000
0000
1000
0100
1000
0100
2000
3200
1300
0100
0010
0001
0010
0001
0010
0001
0010
0001
0010
0001
0010
0100
0100
0100
0100
0000
0000
0000
0000
0000
0000
0000
0000
1000
0000
0001
0000
1000
0000
0001
0000
1000
0000
0001
0000
1000
0000
0001
0000
,
1000
0001
1000
0002
1003
0002
1003
0001
1000
0001
1000
0001
1000
0001
1000
0001
1000
0001
2000
3001
1000
0001
1000
0001
0000
1000
0001
1000
0001
1000
0001
1000
,
1001
0100
0010
0100
0010
0100
0010
0100
0010
0100
0010
0100
0020
0130
0010
0100
0020
0130
0010
0100
0010
0100
0010
0100
0010
0100
0010
0100
0010
0100
0010
0100
,
0010
1000
0100
1000
0100
1000
0100
1000
0100
1000
0100
1000
0100
1000
0100
1000
0100
1000
0100
1000
0100
1000
0100
1000
0100
1000
0100
1000
0100
1000
0100
1000
,
0100
0010
0001
0010
0001
0010
0001
0010
0001
0010
0001
0010
0001
0010
0001
0010
0001
0010
0001
0010
0001
0010
0001
0010
0001
0010
0001
0010
0001
0010
0001
0010
,
0001
0100
0001
0100
0001
0100
0002
0103
0001
0100
0002
0103
0001
0200
0302
0103
0001
0100
0002
0103
0002
0103
0002
0103
0001
0100
0001
0100
0001
0100
0001
0100
,
0001
1000
0100
1000
0100
1000
0100
1000
0100
1000
0100
1000
0100
1000
0100
1000
0100
1000
0100
1000
0100
1000
0100
1000
0100
2000
3200
1300
0100
1000
0100
1000
,
0100
0001
0010
0100
1000
0001
0020
0230
1300
0001
0010
0100
1000
0001
0010
0100
1000
0001
0010
0100
1000
0001
0010
0100
1000
0002
0013
0100
2000
3002
0013
0100
1000
0001
0010
0100
1000
0002
0013
0100
1000
0001
0010
0100
1000
0001
0010
0100
1000
0001
0010
0100
1000
0001
0010
0100
1000
0001
0010
0100
1000
0001
0010
0100
,
1000
0100
0010
1000
0001
0100
0010
1000
0001
0100
0010
1000
0001
0100
0010
1000
0001
0100
0010
1000
0002
0103
0010
0001
1000
0100
0010
1000
0001
0100
0010
1000
0001
0100
0010
1000
0001
0100
0010
1000
0001
0100
0010
1000
0001
0100
0010
1000
0001
0100
0010
1000
0001
0100
0010
1000
0001
0100
0010
1000
0001
0100
0010
1000
,
0001
0000
0000
1000
0000
0000
0100
0000
0000
0010
0000
0000
0001
0000
0000
0010
0000
0000
0100
0000
0000
1000
0000
0000
0100
0000
0000
0010
0000
0000
0001
0000
0000
0010
0000
0000
0100
0000
0000
1000
0000
0000
0001
0000
0000
0010
0000
0000
0100
0000
0000
1000
0000
0000
0100
0000
0000
0010
0000
0000
0001
0000
0000
0010
0000
0000
0100
0000
0000
1000
0000
0000
0001
0000
0000
0010
0000
0000
0100
0000
0000
1000
0000
0000
0001
0000
0000
0010
0000
0000
0100
0000
0000
1000
0000
0000
0100
0000
0000
0010
0000
0000
0001
0000
0000
1000
0000
0000
0100
0000
0000
0010
0000
0000
0001
0000
0000
0100
0000
0000
0010
0000
0000
1000
0000
0000
0001
0000
0000
0100
0000
0000
0010
0000
0000
1000
0000
0000
0001
0000
0000
0010
0000
0000
0100
0000
0000
0001
0000
0000
1000
0000
0000
0010
0000
0000
0100
0000
0000
0001
0000
0000
1000
0000
0000
0010
0000
0000
0100
0000
0000
1000
0010
0000
0001
0000
0100
1000
0000
0000
0001
0000
0000
1000
0010
0000
0001
0000
0100
1000
0000
0000
,
0001
0000
0000
0000
;
